0

Apowersoft MKV Converter Studio – Convert All MKV Files

Apowersoft MKV Converter Studio v Setup + Crack [Latest] Apowersoft MKV Converter Studio v Apowersoft MKV Converter is one of the best MKV file converter tools for you to convert MKV files with subtitles/5(3). MIDI Converter Studio Serial [Free of Risk Download] Kimberly Dorsey. If you want an all-in-one MKV converter, player, editor and fully. Install and launch the MKV to Sony Movie Studio Converter, and then click "Add Files" button to import your MKV files to the software. It even converts audio formats, such as MP3, MP2. But the only limit is the output videos will have watermark and the audio files will have a small ad. For Any Video Converter, it is named as a free video converter.

1

Wondershare DVD Creator 6.3.3 Crack Full Serial Key Code

Mkv video converter free download - Wise Video Converter, Free MKV Converter, 4Videosoft MKV Video Converter, and many more programs. VideoSolo Video Converter Ultimate can convert video to just about any format going, including MP4, MOV, FLV, AVI, MKV. The application is also capable of converting audio formats, such as MP3, MP2, OGG, and AAC. Omgpop coin hack generator https://sa-mebel-ekanom.ru/forum/?download=6907. HD Video Converter Factory has had 4 updates within the past 6 months. HD Video Converter Factory Pro is equipped with advanced High-Definition (HD) video conversion technology and fully supports hardware acceleration.

MKV Converter: Convert MKV to MP4 in VideoStudio

But it doesn't support DTS or AC3, only support AAC. It's best if you avoid using common keywords when searching for Mkv Converter Studio V1.0. You can use Freemake Video Converter to convert video formats, create photo slideshows, visualize the music, and rip video. VideoSolo Video Converter Ultimate also has some other aces up its sleeves. Game alien shooter 1 crack website. Apowersoft MKV Converter Studio Crack Overview.

2

Three Methods of Convert MKV Files To Play On Your TV

Microsoft access 2020 cracked. Not all video, audio codecs can be well supported by Pinnacle Studio. Since MKV is a container format and HEVC is a compression format, converting from MKV to HEVC is a misnomer. If you would like to submit a review of this software, we encourage you to submit us something! Apowersoft Video Converter Studio Crack Free download is a wonderful and helpful software in the [HOST]soft Video Converter Studio serile+patch is the most powerful movie video converter, and it was developed by Apowersoft. Narudo says: May 20, 2020 at 7: 35 am VideoProc can convert DVD, VIDEO_TS folder, ISO images to those formats.

Apowersoft MKV Converter Studio 2.5.4 for Windows

Apowersoft Video Converter Studio is a powerful video editing suite that can convert numerous types of video formats, such as AVI, MP4, FLV, and MKV. Tags- Free Download MKV Converter Studio Serial Key Generator download MKV Converter Studio Serial Key Generator Free Download MKV Converter Studio, Como baixar e instalar o MKV Converter Studio, wie herunterladen und installieren MKV Converter Studio. Runescape hack tool link. File category: VIDEO: Additional information about: MP4 is the official file name for MPEG-4 part 14 and is a multimedia container format commonly used to store audio and video but can also store other data such as subtitles and still images. Video Player for AVI and MKV supports popular video formats like avi, flv, mp4 and mkv. Mkv converter studio crack.

3

FL Studio 20.7.3.1987 Crack Plus Keygen [Latest] is here

100 kelly key cdcr weblink. Game project cars full crack. VueScan Pro Keygen solves your issues with brother scanners, like Fujitsu scanners, etc. As mentioned above, Wondershare Video Converter Free is completely free for you to convert video to MP4 in batch. VSO Free Mkv WebM Converter converts all your files to Mkv, Webm, audio ogg for FREE. Metin2 level bot hack https://sa-mebel-ekanom.ru/forum/?download=6266.

How to Remove Subtitles from MKV, MP4, AVI and So On

While playing, you can snapshots of your favorite movie scenes, enjoy. Moreover, the novice users may be discouraged by the potentially confusing settings. Key get data back view. The following illustrates a step-by-step guidance. Release date 8/7/2020. Convert MKV to MP4 video files.

4

Keygen 2020 Top 5 Best Video Converter Software Completely Free

It can convert almost all video formats including DivX, XviD, MOV, rm, rmvb, MPEG, VOB, DVD, WMV, AVI to MPEG-I, MPEG-I, DVD NTSC, DVD PAL, Flash for Video (FLV), AVI Video and Customized WMV movie formats. Sign me up Stay informed about special deals, the latest products, events, and more from Microsoft Store. Apowersoft mkv Converter Studio one of the best tool for converting files sounded mkv. Microsoft office product key card. Apowersoft MKV Converter Studio antivirus report. AUDIATOR mp3 converter for android is a sound app that give new format music to your headphone and speaker based on the famous library ffmpeg.

Difference between filetypes?

Hi /obs,
I use OBS Studio for recording gaming - originally I output in .mp4, but when playing it back in VLC or Premiere Pro, it was incredibly laggy and almost impossible to edit. Under recommendation of some people here, I switched to using .mkv, which is much better, but my editing software (Premiere Pro) doesn't support it, so I have to spend about an hour a video converting it with Handbrake and often it will break somehow.
So, I'm wondering what the best filetype (that supports multiple audio (no flv)) that is editable with Premiere Pro and doesn't have the issues .mp4 does.
I was thinking .mov - any pros/cons to this?
Thanks
submitted by MitchTJones to obs

5

Help needed with lossless video/audio screen capture. 4:2:0 text blur, lossless x264, ALSA, buffering, and VAAPI mysteries to solve!

Hi, this is my script so far to capture the screen and audio from one Mic input on my six channel USB sound card. I am not confident that it is optimal and would love some feedback. I am using Centos 8.2 with FFMPEG 4.2.4:
#!/usbin/env bash buffer_size="4096" ffmpeg \ -thread_queue_size "$buffer_size" -f x11grab -video_size 1920x1080 -framerate 30 -i "$DISPLAY" \ -thread_queue_size "$buffer_size" -f alsa -acodec pcm_s32le -ac 6 -i sysdefault \ -c:v libx264 -preset ultrafast -crf 0 \ -c:a pcm_s32le -af "pan=mono|c0=FR" \ "$1".mkv 
- I am attempting to bypass PulseAudio and capture audio direcly in ALSA in the hope to avoid any sample rate conversion or other nonsense. When I type ffmpeg -sources it tells me:
* default [Default ALSA Output (currently PulseAudio Sound Server)] sysdefault:CARD=USB [Default Audio Device] 
So I am using sysdefault, but the output of FFMPEG looks identical:
Input #1, alsa, from 'sysdefault': Duration: N/A, start: 1604837938.951852, bitrate: 9216 kb/s Stream #1:0: Audio: pcm_s32le, 48000 Hz, 5.1, s32, 9216 kb/s Input #1, alsa, from 'default': Duration: N/A, start: 1604837699.971844, bitrate: 9216 kb/s Stream #1:0: Audio: pcm_s32le, 48000 Hz, 5.1, s32, 9216 kb/s 
Am I dong this right?
- I am capturing a lot of text for coding tutorials, but YouTube etc converts my 4:4:4 capture to 4:2:0 and it makes some text blurry and some colors dull. I have tried adding -pix_fmt yuv420p and the results are much better than OBS studio, but still not great. Is there some filter I can add to at least get the colors to match better?
- I am adding buffers in the hope of avoiding dropouts in audio/video but don't really know what I am doing, is my script correct?
- Is libx264 -preset ultrafast -crf 0 actually lossless? How about changing to fast, would it make any difference?
- I have tried to capture using VAAPI and my Intel QuickSync CPU in H264, but nothing seems to work. Does anyone know how I could do that? It works in OBS studio and the CPU load is much lower, so I know my system is up to it. What settings for the hightest quality are I have no idea.
The results are all going to go through a video editor, so I just want the highest quality with a reasonable file size and it will be rendered out for YouTube at the end. Here is my output, in case it helps:
[x11grab @ 0x564127cb0080] Stream #0: not enough frames to estimate rate; consider increasing probesize Input #0, x11grab, from ':0': Duration: N/A, start: 1604839513.885589, bitrate: N/A Stream #0:0: Video: rawvideo (BGR[0] / 0x524742), bgr0, 1920x1080, 30 fps, 1000k tbr, 1000k tbn, 1000k tbc Guessed Channel Layout for Input Stream #1.0 : 5.1 Input #1, alsa, from 'sysdefault': Duration: N/A, start: 1604839513.556539, bitrate: 9216 kb/s Stream #1:0: Audio: pcm_s32le, 48000 Hz, 5.1, s32, 9216 kb/s Stream mapping: Stream #0:0 -> #0:0 (rawvideo (native) -> h264 (libx264)) Stream #1:0 -> #0:1 (pcm_s32le (native) -> pcm_s32le (native)) [alsa @ 0x564127cb9b80] ALSA buffer xrun. [libx264 @ 0x564127d0f6c0] using cpu capabilities: MMX2 SSE2Fast SSSE3 SSE4.2 AVX FMA3 BMI2 AVX2 [libx264 @ 0x564127d0f6c0] profile High 4:4:4 Predictive, level 4.0, 4:4:4, 8-bit [libx264 @ 0x564127d0f6c0] 264 - core 157 r2980 34c06d1 - H.264/MPEG-4 AVC codec - Copyleft 2003-2019 - http://www.videolan.org/x264.html - options: cabac=0 ref=1 deblock=0:0:0 analyse=0:0 me=dia subme=0 psy=0 mixed_ref=0 me_range=16 chroma_me=1 trellis=0 8x8dct=0 cqm=0 deadzone=21,11 fast_pskip=0 chroma_qp_offset=0 threads=12 lookahead_threads=2 sliced_threads=0 nr=0 decimate=1 interlaced=0 bluray_compat=0 constrained_intra=0 bframes=0 weightp=0 keyint=250 keyint_min=25 scenecut=0 intra_refresh=0 rc=cqp mbtree=0 qp=0 [Parsed_pan_0 @ 0x564128623300] Pure channel mapping detected: 1 Output #0, matroska, to 'hello.mkv': Metadata: encoder : Lavf58.29.100 Stream #0:0: Video: h264 (libx264) (H264 / 0x34363248), yuv444p(progressive), 1920x1080, q=-1--1, 30 fps, 1k tbn, 30 tbc Metadata: encoder : Lavc58.54.100 libx264 Side data: cpb: bitrate max/min/avg: 0/0/0 buffer size: 0 vbv_delay: -1 Stream #0:1: Audio: pcm_s32le ([1][0][0][0] / 0x0001), 48000 Hz, mono, s32, 1536 kb/s Metadata: encoder : Lavc58.54.100 pcm_s32le frame= 111 fps= 30 q=-1.0 Lsize= 2357kB time=00:00:06.16 bitrate=3129.8kbits/s dup=0 drop=74 speed=1.69x video:1749kB audio:604kB subtitle:0kB other streams:0kB global headers:0kB muxing overhead: 0.169490% 
submitted by HarmonicAscendant to ffmpeg